#TITLE:I Think About You;
#SUBTITLE:;
#ARTIST:Elizabeth Dobbs;
#TITLETRANSLIT:;
#SUBTITLETRANSLIT:;
#ARTISTTRANSLIT:;
#CREDIT:;
#BANNER:;
#BACKGROUND:;
#LYRICSPATH:;
#CDTITLE:;
#MUSIC:I Think About You.mp3;
#MUSICLENGTH:76.512;
#OFFSET:-0.040;
#SAMPLESTART:32.785;
#SAMPLELENGTH:12.000;
#SELECTABLE:YES;
#BPMS:0.000=117.000;
#STOPS:;
#BGCHANGES:;
#FIRSTBEAT:16.000;

#LASTBEAT:147.000;

#SONGFILENAME:Songs/EXTRA/I Think About You/I Think About You.sm;

#HASMUSIC:1;

#HASBANNER:0;


//---------------dance-single - MANIAC----------------
#NOTES:
     dance-single:
     MANIAC:
     hard:
     6:
     0.364,0.360,0.301,0.026,0.000,170.000,23.000,2.000,0.000,0.000:  // measure 1
0000
0000
0000
0000
,  // measure 2
0000
0000
0000
0000
,  // measure 3
0000
0000
0000
0000
,  // measure 4
0000
0000
0000
0000
,  // measure 5
0011
0000
0100
0000
0010
0001
1000
0000
,  // measure 6
1010
0000
0100
0000
0010
1000
0001
0000
,  // measure 7
0101
0000
0010
0000
0100
0001
1000
0000
,  // measure 8
1100
0000
0010
0000
0100
1000
0001
0100
,  // measure 9
0100
0000
0000
0000
0000
0001
0010
0100
,  // measure 10
1000
0000
0000
0000
0000
0010
1000
0001
,  // measure 11
0100
0000
0000
0000
0000
1000
0100
0010
,  // measure 12
0001
0000
0000
0000
0000
0010
0100
0010
,  // measure 13
0001
0000
0010
0000
0001
1000
1000
0001
,  // measure 14
0100
0000
0010
0000
1000
0010
0001
0010
,  // measure 15
1100
1010
1100
1010
,  // measure 16
0001
0001
0001
0001
0001
0000
0000
0000
,  // measure 17
0011
0000
0100
0000
0010
0001
1000
0000
,  // measure 18
1010
0000
0100
0000
0010
1000
0001
0000
,  // measure 19
0101
0000
0010
0000
0100
0001
1000
0000
,  // measure 20
1100
0000
0010
0000
0100
1000
0001
0100
,  // measure 21
0100
0000
0000
0000
0100
1000
1000
0010
,  // measure 22
0001
0000
0010
0000
1000
0100
0010
0001
,  // measure 23
0001
0000
1010
0000
0000
1000
1000
0001
,  // measure 24
0001
0110
2000
3001
,  // measure 25
1000
0000
0010
0000
0100
0001
0001
0010
,  // measure 26
0100
0000
1000
0000
0100
0100
0010
0000
,  // measure 27
0011
0101
0011
0101
,  // measure 28
1000
1000
1000
1000
1000
0000
0000
0000
,  // measure 29
0010
0100
0010
0100
0010
0000
0000
0000
,  // measure 30
1000
0100
0001
0000
0001
0100
1000
0000
,  // measure 31
1000
0010
0001
0000
0001
0010
1000
0000
,  // measure 32
1000
0100
0010
0000
0001
0100
0010
0000
,  // measure 33
1000
0001
0010
0001
1000
0100
1000
0000
,  // measure 34
0011
0000
0100
0000
0010
0001
1000
0000
,  // measure 35
1010
0000
0100
0000
0010
1000
0001
0000
,  // measure 36
0101
0000
0010
0000
0100
0001
1000
0000
,  // measure 37
1100
0100
0010
0010
0210
0000
0301
0000
;

//---------------dance-single - ANOTHER----------------
#NOTES:
     dance-single:
     ANOTHER:
     medium:
     4:
     0.200,0.262,0.000,0.000,0.000,107.000,0.000,0.000,0.000,0.000:  // measure 1
0000
0000
0000
0000
,  // measure 2
0000
0000
0000
0000
,  // measure 3
0000
0000
0000
0000
,  // measure 4
0000
0000
0000
0000
,  // measure 5
0100
1000
0001
0100
,  // measure 6
0001
1000
0100
0010
,  // measure 7
0100
1000
0001
0100
,  // measure 8
0010
0100
0100
0010
,  // measure 9
0010
0000
0000
0001
,  // measure 10
1000
0000
0000
0010
,  // measure 11
0100
0000
0000
1000
,  // measure 12
0010
0000
0000
0001
,  // measure 13
0100
0000
0000
0010
,  // measure 14
0100
0000
0000
1000
,  // measure 15
1000
0001
0010
0100
,  // measure 16
0100
0100
0100
0100
0010
0000
0000
0000
,  // measure 17
1000
0000
0001
0000
,  // measure 18
0010
0000
0100
0000
,  // measure 19
1000
0000
0010
0000
,  // measure 20
0100
0001
1000
0100
,  // measure 21
0100
0000
0000
0010
,  // measure 22
0001
0000
0000
1000
,  // measure 23
0001
0000
0000
0100
,  // measure 24
1000
0000
0000
0010
,  // measure 25
0100
0000
0000
0100
,  // measure 26
0010
0000
0000
0001
,  // measure 27
0100
0010
0100
0001
,  // measure 28
1000
1000
1000
1000
0010
0000
0000
0000
,  // measure 29
1000
0010
0100
0010
0010
0000
0001
0000
,  // measure 30
1000
0001
0010
0001
,  // measure 31
1000
0010
1000
0001
,  // measure 32
0010
0100
1000
0100
,  // measure 33
0010
0001
0010
0100
,  // measure 34
1000
0100
0010
0100
,  // measure 35
1000
0010
0001
0010
,  // measure 36
1000
0100
0010
0001
,  // measure 37
0010
0010
0010
0010
0010
0000
0000
0000
;

//---------------dance-single - BASIC----------------
#NOTES:
     dance-single:
     BASIC:
     easy:
     1:
     0.129,0.216,0.013,0.000,0.000,68.000,1.000,0.000,0.000,0.000:  // measure 1
0000
0000
0000
0000
,  // measure 2
0000
0000
0000
0000
,  // measure 3
0000
0000
0000
0000
,  // measure 4
0000
0000
0000
0000
,  // measure 5
0100
0010
0100
0000
,  // measure 6
0001
1000
0001
0000
,  // measure 7
0010
0100
0010
0000
,  // measure 8
1000
0001
1000
0000
,  // measure 9
0100
0000
0000
0000
,  // measure 10
0001
0000
0000
0000
,  // measure 11
1000
0000
0000
0000
,  // measure 12
0010
0000
0000
0000
,  // measure 13
0100
0100
0000
0000
,  // measure 14
0010
0010
0000
0000
,  // measure 15
1000
0001
1000
0001
,  // measure 16
0010
0010
0010
0000
,  // measure 17
0100
0000
0000
0000
,  // measure 18
0010
0000
0000
0000
,  // measure 19
0001
0000
0000
0000
,  // measure 20
1000
0000
0000
0000
,  // measure 21
0010
0000
0000
0000
,  // measure 22
0100
0000
0000
0000
,  // measure 23
0100
0000
0000
0000
,  // measure 24
0001
0000
0000
0000
,  // measure 25
1000
0000
0001
0000
,  // measure 26
1000
0000
0010
0000
,  // measure 27
0100
0100
0100
0100
,  // measure 28
0010
0010
0010
0000
,  // measure 29
1001
0000
0000
0000
,  // measure 30
0100
0000
0001
0000
,  // measure 31
1000
0000
0010
0000
,  // measure 32
1000
0000
0001
0000
,  // measure 33
0100
0000
0100
0000
,  // measure 34
0010
1000
0001
0000
,  // measure 35
0010
0001
1000
0000
,  // measure 36
0010
1000
0001
0000
,  // measure 37
0100
0100
0100
0100
;
